An Affair to Die For 2019 HDRip AC3 X264 LLG torrent download

seeders: 651
leechers: 35
updated:
Added ago by LifeLongg ***** in Movies
Torrent Downloaded 10 times.
Info Hash: 2325578D4C222075F6B0EF0AFED64211B51C2425


Torrent Files

An Affair to Die For 2019 HDRip AC3 X264 LLG (Size: 854.7 MB)
  An Affair to Die For 2019 HDRip AC3 X264 LLG 854.7 MB

Torrent Description



Quote:




******************************Thumbnail:**********************



******************************Screenshots:********************

Screenshot 1

Screenshot 2

Screenshot 3

Screenshot 4

Screenshot 5

Screenshot 6

Screenshot 7

Screenshot 8

Screenshot 9

Screenshot 0


******************************************************

18+.An.Affair.to.Die.For.2019.HDRip.AC3.X264.LLG.mp4
Format : MPEG-4
Format profile : Base Media
Codec ID : isom (isom/iso2/avc1/mp41)
File size : 837 MiB
Duration : 1 h 22 min
Overall bit rate mode : Variable
Overall bit rate : 1 414 kb/s


Video
ID : 1
Format : AVC
Format/Info : Advanced Video Codec
Format profile : [email protected]
Format settings : CABAC / 1 Ref Frames
Format settings, CABAC : Yes
Format settings, RefFrames : 1 frame
Codec ID : avc1
Codec ID/Info : Advanced Video Coding
Duration : 1 h 22 min
Bit rate mode : Variable
Bit rate : 1 027 kb/s
Maximum bit rate : 3 600 kb/s
Width : 720 pixels
Height : 304 pixels
Display aspect ratio : 2.35:1
Frame rate mode : Constant
Frame rate : 23.976 (23976/1000) FPS
Color space : YUV
Chroma subsampling : 4:2:0
Bit depth : 8 bits
Scan type : Progressive
Bits/(Pixel*Frame) : 0.196
Stream size : 607 MiB (73%)


Audio
ID : 2
Format : AC-3
Format/Info : Audio Coding 3
Commercial name : Dolby Digital
Codec ID : ac-3
Duration : 1 h 22 min
Bit rate mode : Constant
Bit rate : 384 kb/s
Channel(s) : 6 channels
Channel layout : L R C LFE Ls Rs
Sampling rate : 48.0 kHz
Frame rate : 31.250 FPS (1536 SPF)
Bit depth : 16 bits
Compression mode : Lossy
Stream size : 227 MiB (27%)
Language : English
Service kind : Complete Main
Default : Yes
Alternate group : 1


********************************************************




Related Torrents

torrent name size age seed leech
18.14 MB 1 minute 240 420
1.7 GB 17 seconds 81 71
963.7 MB 17 seconds 729 474
17.36 MB 1 minute 593 219
12.46 MB 1 minute 258 255

Sharing Widget


Download torrent
854.7 MB
seeders:1214
leechers:386
An Affair to Die For 2019 HDRip AC3 X264 LLG



To share this torrent use the code below and insert it into comments, status messages, forum posts or your signature.

Torrent: An Affair to Die For 2019 HDRip AC3 X264 LLG

Comments

Latest Searches

Astérix - Astérix et Cléopâtre - nº6 | Expedition Unknown S05E00 Global Game Show-Secrets of War iNTERN 19 минут | Sustainable Carbon Materials From Hydrothermal Processes Astérix - Astérix et Cléopâtre - nº6 | Expedition Unknown S05E00 Global Game Show-Secrets of War iNTERN 19 минут | Sustainable Carbon Materials From Hydrothermal Processes