Bull (2016) S03E13 (1080p AMZN WEB DL x265 HEVC 10bit AC3 5 1 Qman) [UTR] torrent download

seeders: 630
leechers: 256
updated:
Added ago by UTRCorp ***** in TV
Torrent Downloaded 10 times.
Info Hash: 1276ED410377534E44765DEC660DD26B5657CE80


Torrent Files

Bull (2016) S03E13 (1080p AMZN WEB-DL x265 HEVC 10bit AC3 5 1 Qman) [UTR] (Size: 1.0 GB)
  Bull (2016) S03E13 (1080p AMZN WEB-DL x265 HEVC 10bit AC3 5 1 Qman) [UTR] 1.0 GB

Torrent Description










Media Information

Media Information

Code:

General
Format : Matroska
Format version : Version 4 / Version 2
File size : 1.04 GiB
Duration : 42 min 55 s
Overall bit rate : 3 459 kb/s
Encoded date : UTC 2019-02-06 21:44:44
Writing application : mkvmerge v30.1.0 ('Forever And More') 64-bit
Writing library : libebml v1.3.6 + libmatroska v1.4.9

Video
ID : 1
Format : HEVC
Format/Info : High Efficiency Video Coding
Format profile : Main [email protected]@Main
Codec ID : V_MPEGH/ISO/HEVC
Duration : 42 min 55 s
Bit rate : 2 817 kb/s
Width : 1 920 pixels
Height : 1 080 pixels
Display aspect ratio : 16:9
Frame rate mode : Constant
Frame rate : 24.000 FPS
Color space : YUV
Chroma subsampling : 4:2:0
Bit depth : 10 bits
Bits/(Pixel*Frame) : 0.057
Stream size : 865 MiB (81%)
Writing library : x265 3.0_RC+10-672ce0547e97:[Windows][GCC 8.2.1][64 bit] 10bit
Encoding settings : cpuid=1111039 / frame-threads=2 / numa-pools=4 / wpp / no-pmode / no-pme / no-psnr / no-ssim / log-level=2 / input-csp=1 / input-res=1920x1080 / interlace=0 / total-frames=61804 / level-idc=0 / high-tier=1 / uhd-bd=0 / ref=4 / no-allow-non-conformance / no-repeat-headers / annexb / no-aud / no-hrd / info / hash=0 / no-temporal-layers / open-gop / min-keyint=24 / keyint=250 / gop-lookahead=0 / bframes=8 / b-adapt=2 / b-pyramid / bframe-bias=0 / rc-lookahead=50 / lookahead-slices=4 / scenecut=40 / radl=0 / no-splice / no-intra-refresh / ctu=64 / min-cu-size=8 / no-rect / no-amp / max-tu-size=32 / tu-inter-depth=1 / tu-intra-depth=1 / limit-tu=0 / rdoq-level=2 / dynamic-rd=0.00 / no-ssim-rd / signhide / no-tskip / nr-intra=0 / nr-inter=0 / no-constrained-intra / no-strong-intra-smoothing / max-merge=3 / limit-refs=3 / limit-modes / me=3 / subme=3 / merange=57 / temporal-mvp / weightp / no-weightb / no-analyze-src-pics / deblock=1:1 / no-sao / no-sao-non-deblock / rd=4 / no-early-skip / no-rskip / no-fast-intra / no-tskip-fast / no-cu-lossless / no-b-intra / no-splitrd-skip / rdpenalty=0 / psy-rd=1.40 / psy-rdoq=1.00 / no-rd-refine / no-lossless / cbqpoffs=0 / crqpoffs=0 / rc=crf / crf=21.0 / qcomp=0.60 / qpstep=4 / stats-write=0 / stats-read=0 / ipratio=1.40 / pbratio=1.30 / aq-mode=2 / aq-strength=1.00 / cutree / zone-count=0 / no-strict-cbr / qg-size=32 / no-rc-grain / qpmax=69 / qpmin=0 / no-const-vbv / sar=0 / overscan=0 / videoformat=5 / range=0 / colorprim=2 / transfer=2 / colormatrix=2 / chromaloc=0 / display-window=0 / max-cll=0,0 / min-luma=0 / max-luma=1023 / log2-max-poc-lsb=8 / vui-timing-info / vui-hrd-info / slices=1 / no-opt-qp-pps / no-opt-ref-list-length-pps / no-multi-pass-opt-rps / scenecut-bias=0.05 / no-opt-cu-delta-qp / no-aq-motion / no-hdr / no-hdr-opt / no-dhdr10-opt / no-idr-recovery-sei / analysis-reuse-level=5 / scale-factor=0 / refine-intra=0 / refine-inter=0 / refine-mv=0 / refine-ctu-distortion=0 / no-limit-sao / ctu-info=0 / no-lowpass-dct / refine-analysis-type=0 / copy-pic=1 / max-ausize-factor=1.0 / no-dynamic-refine / no-single-sei / no-hevc-aq / qp-adaptation-range=1.00
Language : English
Default : Yes
Forced : No

Audio
ID : 2
Format : E-AC-3
Format/Info : Enhanced Audio Coding 3
Format settings, Endianness : Big
Codec ID : A_EAC3
Duration : 42 min 55 s
Bit rate mode : Constant
Bit rate : 640 kb/s
Channel(s) : 6 channels
Channel positions : Front: L C R, Side: L R, LFE
Sampling rate : 48.0 kHz
Frame rate : 187.500 FPS (256 spf)
Compression mode : Lossy
Stream size : 196 MiB (19%)
Language : English
Default : Yes
Forced : No

Subtitle
ID : 3
Format : UTF-8
Codec ID : S_TEXT/UTF8
Codec ID/Info : UTF-8 Plain Text
Duration : 42 min 20 s
Bit rate : 87 b/s
Count of elements : 903
Stream size : 27.2 KiB (0%)
Language : English
Default : Yes
Forced : No



Source Information

Code:

Release:
Unknown Source/NO-GROUP





We have no issue with individuals posting or re-uploading our torrents on a platform we aren't on. However, if this is something you'd like to do, please do so in a 'as-is' format. We ask that you do not create a new torrent, include all descriptions you see above including the UTR logo, tags, notes and screenshots. If you'd like to become a permanent poster on a website we don't post to, feel free to get in contact with a UniTeam member.[/center]



Related Torrents

torrent name size age seed leech
1.5 GB 1 minute 167 210
503.2 MB 10 minutes 238 195
580.8 MB 10 minutes 675 239
591.4 MB 10 minutes 791 474
1.05 GB 15 minutes 461 189

Sharing Widget


Download torrent
1.0 GB
seeders:1214
leechers:386
Bull (2016) S03E13 (1080p AMZN WEB-DL x265 HEVC 10bit AC3 5 1 Qman) [UTR]



To share this torrent use the code below and insert it into comments, status messages, forum posts or your signature.

Torrent: Bull (2016) S03E13 (1080p AMZN WEB-DL x265 HEVC 10bit AC3 5 1 Qman) [UTR]

Comments

Latest Searches

The Conjuring | The Official UK Top 40 Singles Chart – 01 February (2019) 320 KBPS | Dinosaurs: Complete TV Series Seasons 1 2 3 4 Box / DVD Set(s) Collection NEW!$39.88 26d left The Conjuring | The Official UK Top 40 Singles Chart – 01 February (2019) 320 KBPS | Dinosaurs: Complete TV Series Seasons 1 2 3 4 Box / DVD Set(s) Collection NEW!$39.88 26d left