The Front Runner 2019 DVDRip XviD AC3 LLG torrent download

seeders: 497
leechers: 333
updated:
Added ago by LifeLongg ***** in Movies
Torrent Downloaded 10 times.
Info Hash: 65733EB7F6C570B8E72CAF9F95CA643E57CAD8BB


Torrent Files

The Front Runner 2019 DVDRip XviD AC3 LLG (Size: 1.0 GB)
  The Front Runner 2019 DVDRip XviD AC3 LLG 1.0 GB

Torrent Description



Quote:




******************************Thumbnail:**********************



******************************Screenshots:********************

Screenshot 1

Screenshot 2

Screenshot 3

Screenshot 4

Screenshot 5

Screenshot 6

Screenshot 7

Screenshot 8

Screenshot 9

Screenshot 0


******************************************************

The.Front.Runner.2019.DVDRip.XviD.AC3.LLG.mp4
Format : MPEG-4
Format profile : Base Media
Codec ID : isom (isom/iso2/avc1/mp41)
File size : 1.02 GiB
Duration : 1 h 53 min
Overall bit rate mode : Variable
Overall bit rate : 1 287 kb/s
Writing application : Lavf57.83.100

Video
ID : 1
Format : AVC
Format/Info : Advanced Video Codec
Format profile : [email protected]
Format settings : CABAC / 1 Ref Frames
Format settings, CABAC : Yes
Format settings, RefFrames : 1 frame
Codec ID : avc1
Codec ID/Info : Advanced Video Coding
Duration : 1 h 53 min
Bit rate mode : Variable
Bit rate : 899 kb/s
Maximum bit rate : 2 700 kb/s
Width : 720 pixels
Height : 384 pixels
Display aspect ratio : 1.85:1
Frame rate mode : Constant
Frame rate : 23.976 (23976/1000) FPS
Color space : YUV
Chroma subsampling : 4:2:0
Bit depth : 8 bits
Scan type : Progressive
Bits/(Pixel*Frame) : 0.136
Stream size : 730 MiB (70%)
Codec configuration box : avcC

Audio
ID : 2
Format : AC-3
Format/Info : Audio Coding 3
Commercial name : Dolby Digital
Codec ID : ac-3
Duration : 1 h 53 min
Bit rate mode : Constant
Bit rate : 384 kb/s
Channel(s) : 6 channels
Channel layout : L R C LFE Ls Rs
Sampling rate : 48.0 kHz
Frame rate : 31.250 FPS (1536 SPF)
Bit depth : 16 bits
Compression mode : Lossy
Stream size : 312 MiB (30%)
Service kind : Complete Main
Default : Yes
Alternate group : 1


********************************************************




Related Torrents

torrent name size age seed leech
75.5 KB 55 seconds 741 150
426.5 MB 56 seconds 523 70
3.8 GB 56 seconds 229 143
441.1 MB 56 seconds 370 241
743.9 MB 2 minutes 234 426

Sharing Widget


Download torrent
1.0 GB
seeders:1214
leechers:386
The Front Runner 2019 DVDRip XviD AC3 LLG



To share this torrent use the code below and insert it into comments, status messages, forum posts or your signature.

Torrent: The Front Runner 2019 DVDRip XviD AC3 LLG

Comments

Latest Searches

Jung Jen Pao | Arrow First Air Date: 2012-10-10 Popularity: 445.88 | One Piece 370 Jung Jen Pao | Arrow First Air Date: 2012-10-10 Popularity: 445.88 | One Piece 370